#TITLE:Are You A Good Girl?;
#SUBTITLE:Initiate;
#ARTIST:DBSK;
#TITLETRANSLIT:;
#SUBTITLETRANSLIT:;
#ARTISTTRANSLIT:;
#CREDIT:;
#BANNER:RUAGG-bn.png;
#BACKGROUND:;
#LYRICSPATH:;
#CDTITLE:cdtitle.png;
#MUSIC:Are-You-A-Good-Girl-DBSK2.mp3;
#OFFSET:-0.080;
#SAMPLESTART:46.234;
#SAMPLELENGTH:12.000;
#SELECTABLE:YES;
#DISPLAYBPM:130.000;
#BPMS:0.000=130.000,16.000=260.000,20.000=130.000,156.000=65.000,170.000=130.000,186.000=260.000,189.000=130.000,202.000=260.000,205.000=260.000,207.000=65.000,210.250=130.000,211.250=65.000,212.250=130.000,213.250=65.000,215.250=130.000,216.250=65.000,217.000=130.000;
#STOPS:16.500=0.231
,17.500=0.231
,18.500=0.231
,19.500=0.231
,186.375=0.173
,187.125=0.173
,187.750=0.115
,188.250=0.115
,188.750=0.115
,202.375=0.173
,203.125=0.173
,203.750=0.115
,204.250=0.115
,204.750=0.115
;
#BGCHANGES:;
// cache tags:
#FIRSTBEAT:0.000;
#LASTBEAT:216.250;
#SONGFILENAME:Songs/Initiate/Areyouagoodgirl/Are-You-A-Good-Girl-DBSK2.sm;
#HASMUSIC:1;
#HASBANNER:1;
#MUSICLENGTH:110.114;
// end cache tags

//---------------dance-single - ----------------
#NOTES:
     dance-single:
     :
     Hard:
     7:
     0.829,0.810,1.000,0.227,0.445,423.000,189.000,25.000,0.000,30.000:
0010
0000
0100
0000
1000
0000
0100
0000
0010
0000
0001
1000
0100
0000
1000
0000
,
0010
0000
0101
1100
0000
0110
1100
0000
,
0011
0000
0110
0000
1100
0000
0101
0000
0011
1000
0101
1000
0011
0000
0101
0000
,
1100
0000
0011
0110
0000
0110
1100
0000
,
1001
1001
1001
1001
,
2002
0000
0000
0000
0000
0000
0110
3003
0000
0000
0110
0000
1001
0000
0000
0000
,
2002
0000
0000
0000
0000
0000
0110
3003
0000
0000
1001
0110
1001
0000
0000
0000
,
1001
0000
1001
1001
0000
1001
1001
0000
,
1001
0000
0110
1100
0000
1100
0101
0000
,
1010
0011
0110
1010
0110
0011
1010
0110
,
0011
0010
0100
0100
0010
0010
1000
1000
0001
0001
0100
0010
1001
0000
1010
0000
,
1001
0000
0011
0100
0000
1000
0101
0001
,
1000
0100
1000
0000
0110
0000
1001
1001
0110
0000
1001
0000
1001
0000
0110
0000
,
1001
0000
1001
0110
0000
0101
1010
0101
,
0010
0001
0010
0000
1010
0000
0110
0110
0110
0000
1010
0000
1010
0000
0000
0000
,
1010
0001
0010
1100
0000
1000
0100
0011
,
0000
1000
0100
0011
0001
0010
1100
0001
,
0112
1010
1100
0110
1100
1010
1010
0110
,
1013
0010
1010
0000
0110
0000
0001
0010
1001
0000
0110
0000
1001
0000
0000
0000
,
0110
1000
0100
1001
0000
0001
1010
0100
,
0000
0100
0101
1000
0100
1000
0101
0000
,
0201
1000
0011
0010
1000
0001
1010
1000
,
0301
0010
1000
0010
0101
0000
0010
0010
0100
0000
0100
0000
0110
0000
0000
0000
,
0110
1000
0101
0001
0010
0100
1001
0010
,
0000
0100
0011
1000
0100
0001
1020
0000
,
1230
1000
1001
0010
1000
1000
1001
0010
,
1300
0010
0001
1000
0100
0000
0001
0010
1000
0100
0001
0010
1000
0000
0010
0000
0101
0000
0000
0000
0101
0000
0000
0000
0101
0000
0000
0000
0000
0000
0000
0000
,
0101
0100
0101
1000
0100
0001
1010
0100
,
0000
1000
0101
0001
0100
0001
1010
0000
,
2100
0010
0011
0100
0010
0001
0101
0010
,
3112
1000
1000
0010
1100
0010
1100
0100
1000
0000
1100
0000
0110
0000
0000
0000
,
2023
0000
3202
0030
,
2300
0000
0000
0003
0000
0000
3101
0000
,
1010
0000
0000
0101
1010
0000
0000
0010
,
1000
0100
0010
0001
0010
0000
1000
0100
0001
0000
0001
0000
0001
0000
0000
0000
,
2020
0000
0000
0000
0000
0000
0000
0000
0000
0000
0000
0000
0000
0000
0000
0000
3200
0000
0000
0000
0000
0000
0000
0000
0000
0000
0000
0000
0030
0000
0000
2000
,
0000
0000
3000
1301
,
0110
0000
0000
0110
1001
0000
0001
0010
,
0010
0100
1000
1000
0000
1000
0100
1000
0100
0010
0001
0000
0001
0000
0000
0000
,
0101
0000
0110
0000
1100
0011
0110
0000
1100
0000
0011
0110
0000
1100
0110
0000
,
0011
0000
0110
1001
0010
0100
1000
0010
0000
1000
0100
0010
0001
0010
0100
0000
,
1100
0010
0001
0010
0100
0001
1000
0100
0000
0100
1000
0001
0010
0100
0001
0000
,
0100
0001
0001
0010
0100
0001
1000
0100
1000
0010
0100
0010
1001
0010
1000
0001
,
0100
0100
1000
0010
0101
0000
0000
0000
1001
0100
0010
0100
1010
0000
0010
0000
,
0101
1000
0010
0100
1001
0000
0010
0000
1001
0010
0100
1001
1001
0000
0100
0000
,
0011
1000
0100
0001
0110
0000
1001
0000
0110
0000
0000
0000
0000
0000
0010
0000
,
1100
0000
1000
0000
0000
0000
0000
0000
1010
0000
0000
0101
0000
0000
1010
0000
,
0101
0000
1010
0000
0101
0000
0000
0000
1001
0010
0100
1000
0011
0000
0100
0000
,
0101
1000
0100
0010
1001
0000
0010
0000
1100
0010
0100
1100
0110
0000
0001
0000
,
0110
0001
0010
0100
1010
0000
0101
0000
1010
0000
0000
0000
0000
0000
0001
0000
,
0110
0000
1000
0000
0000
0000
0000
0000
0110
0000
0000
1001
0000
0000
0110
0000
,
1100
0000
0101
0000
2020
0000
0000
0000
0000
0000
0000
0000
3032
0000
0000
1003
,
0000
1000
1000
0000
0002
0000
0000
1003
0000
1000
0001
1000
0000
1000
0002
0000
,
0000
1003
0001
1000
0000
1000
0000
0000
0002
0000
0000
1003
0000
1000
0001
1000
,
0000
1000
0000
0000
0000
0000
0000
0000
0000
0000
0000
0000
0000
0000
0000
0000
;

//---------------dance-single - ----------------
#NOTES:
     dance-single:
     :
     Easy:
     5:
     0.621,0.736,0.490,0.163,0.327,407.000,54.000,18.000,0.000,4.000:
0010
0000
0100
0000
1000
0000
0100
0000
0010
0000
0001
1000
0001
0000
0100
0000
,
0010
0000
1000
0100
0000
0100
1000
0000
,
0001
0010
1000
0100
0001
0001
0010
0001
,
1000
0000
0001
0010
0000
0010
0100
0000
,
1001
1001
1001
1001
,
0002
0000
0000
0000
0000
0000
0010
0003
0000
0000
0010
0000
1000
0000
0000
0000
,
2000
0000
0000
0000
0000
0000
0100
3000
0000
0000
0001
0010
1000
0000
0000
0000
,
1001
0000
1001
1001
0000
1001
1001
0000
,
1001
0000
0001
0100
0000
0100
0001
0000
,
1000
0001
0010
1000
0100
0010
1000
0100
,
0001
0001
0001
0001
0001
0001
0001
0001
0001
0001
0001
0001
0001
0001
0001
0000
,
1000
0000
0001
0100
0000
1000
0001
0000
,
1000
1000
1000
0000
0001
0000
1000
1000
0010
0000
0001
0000
0001
0000
0100
0000
,
1001
0000
1001
0010
0000
0001
1000
0100
,
0010
0010
0010
0000
1000
0000
0100
0100
0100
0000
1000
0000
1000
0000
0001
0000
,
0010
0001
0010
1000
0000
1000
0100
0001
,
0000
1000
0100
0010
0001
0010
1100
0001
,
0012
1000
1000
0010
1000
0010
0010
0100
,
0103
0100
0100
0000
0010
0000
0001
0001
0001
0000
0100
0000
0001
0000
0000
0000
,
0101
1000
0100
1000
0000
0001
1010
0100
,
0000
0100
0101
1000
0100
1000
0101
0000
,
2001
0010
0001
0010
0001
0001
0010
0001
,
3001
0001
0001
0000
0100
0000
0010
0010
0010
0000
0100
0000
1010
0000
0000
0000
,
0101
1000
0101
0001
0010
0100
1001
0010
,
0000
0100
0011
1000
0100
0001
1000
0000
,
1002
1000
0010
1000
1000
0010
1000
0010
,
1003
1000
1000
0000
0010
0000
0010
0010
0100
0000
0001
0000
0100
0000
0000
0000
,
0101
0100
0101
1000
0100
0001
1010
0100
,
0000
1000
0101
0001
0100
0001
1010
0000
,
2001
0010
0001
0001
0010
0001
0001
0010
,
3012
0000
0010
0000
1000
0000
1000
1000
1000
0000
1000
0000
1000
0000
0000
0000
,
2003
0001
3002
1000
,
2003
0000
0010
0010
0000
0000
3101
0000
,
1010
0000
0000
0101
1010
0000
0000
0010
,
1000
0010
1000
0010
1000
0000
0001
1000
0001
0000
0010
0000
0010
0000
0000
0000
,
2000
0001
3200
0001
,
1000
0000
0001
0001
0000
0000
1301
0000
,
0010
0000
0001
0100
1000
0000
0001
0010
,
0010
1000
0010
0100
0000
0000
0100
0001
1000
0000
0001
0000
0001
0000
0000
0000
,
0001
0000
0010
0000
1000
0001
0010
0000
1000
0000
0001
0100
0000
1000
0100
0000
,
0001
0000
0100
1001
0010
0100
1000
0010
0000
1000
0100
0010
0001
0010
0100
0000
,
1001
0010
0001
0010
0100
0001
1000
0100
0000
0100
1000
0001
0010
0100
0001
0000
,
0100
0001
0001
0010
0100
0001
1000
0100
1000
0000
0100
0000
0001
0000
1000
0000
,
0100
0000
1000
0000
0101
0000
0000
0000
0001
0001
0001
0000
0001
0000
0010
0000
,
1000
1000
1000
0000
1000
0000
0010
0000
0010
0010
0010
0010
0010
0000
0100
0000
,
0001
0001
0001
1000
0001
0000
1000
0000
0010
0000
0000
0000
0000
0000
0010
0000
,
1100
0000
1000
0000
0000
0000
0000
0000
1010
0000
0000
0101
0000
0000
1010
0000
,
0101
0000
1010
0000
0101
0000
0000
0000
0010
0010
0010
0000
0010
0000
0100
0000
,
0100
0100
0100
0000
0100
0000
0010
0000
1000
1000
1000
1000
1000
0000
0100
0000
,
0001
0001
0001
0000
0001
0000
0100
0000
1000
0000
0000
0000
0000
0000
0001
0000
,
1010
0000
1000
0000
0000
0000
0000
0000
0101
0000
0000
1010
0000
0000
0101
0000
,
1010
0000
0101
0000
2020
0000
0000
0000
0000
0000
0000
0000
3032
0000
0000
1003
,
0000
1000
1000
0000
0002
0000
0000
1003
0000
1000
0001
1000
0000
1000
0002
0000
,
0000
1003
0001
1000
0000
1000
0000
0000
0002
0000
0000
1003
0000
1000
0001
1000
,
0000
1000
0000
0000
0000
0000
0000
0000
0000
0000
0000
0000
0000
0000
0000
0000
;
